Add metadata in video without recompression

Discussion in 'Application Software' started by Jaksxker, Mar 2, 2015.

  1. Jaksxker

    Jaksxker MDL Junior Member

    Jan 18, 2014
    76
    0
    0
    #1 Jaksxker, Mar 2, 2015
    Last edited: Mar 2, 2015
    Hello
    I need to add metadata in video without recompression.
    I need to add comment/description or keywords/tag in video metadata.
    Containers: AVI, MPEG, QuickTime, MP4, Matroska, and ... more
    Do you know if this can be done?

    Thank you
     
  2. Jaksxker

    Jaksxker MDL Junior Member

    Jan 18, 2014
    76
    0
    0
    Thank, but i need to add metadata to this video.
    This is a mediainfo:

    Format : MPEG-4
    Format profile : QuickTime
    Codec ID : qt
    File size : 35.7 MiB
    Duration : 13s 388ms
    Overall bit rate : 22.4 Mbps
    Encoded date : UTC 2015-01-30 13:27:46
    Tagged date : UTC 2015-01-30 13:27:46
    NCDT : NCTG

    Video
    ID : 1
    Format : AVC
    Format/Info : Advanced Video Codec
    Format profile : High@L4.0
    Format settings, CABAC : Yes
    Format settings, ReFrames : 2 frames
    Codec ID : avc1
    Codec ID/Info : Advanced Video Coding
    Duration : 13s 388ms
    Bit rate : 21.9 Mbps
    Width : 1 920 pixels
    Height : 1 080 pixels
    Display aspect ratio : 16:9
    Frame rate mode : Constant
    Frame rate : 23.976 fps
    Color space : YUV
    Chroma subsampling : 4:2:0
    Bit depth : 8 bits
    Scan type : Progressive
    Bits/(Pixel*Frame) : 0.441
    Stream size : 35.0 MiB (98%)
    Language : English
    Encoded date : UTC 2015-01-30 13:27:46
    Tagged date : UTC 2015-01-30 13:27:46
    Transfer characteristics : BT.470 System M
    Matrix coefficients : BT.601
    Color range : Full

    Audio
    ID : 2
    Format : PCM
    Format settings, Endianness : Little
    Format settings, Sign : Signed
    Codec ID : sowt
    Duration : 13s 388ms
    Bit rate mode : Constant
    Bit rate : 384 Kbps
    Channel(s) : 1 channel
    Sampling rate : 24.0 KHz
    Bit depth : 16 bits
    Stream size : 628 KiB (2%)
    Language : English
    Encoded date : UTC 2015-01-30 13:27:46
    Tagged date : UTC 2015-01-30 13:27:46
     
  3. Padpadak

    Padpadak MDL Member

    Feb 11, 2010
    123
    24
    10
    Ez Cd audio converter ?

    You can add meta data manual
     
  4. Jaksxker

    Jaksxker MDL Junior Member

    Jan 18, 2014
    76
    0
    0
    How can i do it manual ?
     
  5. Jaksxker

    Jaksxker MDL Junior Member

    Jan 18, 2014
    76
    0
    0
    How do I do that please ?